<?xml version="1.0" standalone="no"?>
<!DOCTYPE svg PUBLIC "-//W3C//DTD SVG 1.1//EN" "http://www.w3.org/Graphics/SVG/1.1/DTD/svg11.dtd" >
<svg xmlns="http://www.w3.org/2000/svg">
<metadata>Generated by IcoMoon</metadata>
<defs>
<font id="theme-icons" horiz-adv-x="1024">
<font-face units-per-em="1024" ascent="960" descent="-64" />
<missing-glyph horiz-adv-x="1024" />
<glyph unicode="&#x20;" horiz-adv-x="512" d="" />
<glyph unicode="&#xe900;" glyph-name="brand-symbol" d="M384 938.667l-384-1024h640l384 1024z" />
<glyph unicode="&#xe901;" glyph-name="arrow-down" d="M512 202.591l-512 585.152h1024z" />
<glyph unicode="&#xe902;" glyph-name="arrow-up" d="M512 714.591l512-585.152h-1024z" />
<glyph unicode="&#xe903;" glyph-name="arrow-left" d="M219.424 426.667l585.152-512v1024z" />
<glyph unicode="&#xe904;" glyph-name="arrow-right" d="M804.576 426.667l-585.152-512v1024z" />
<glyph unicode="&#xe905;" glyph-name="play" d="M896 426.667l-768-512v1024z" />
<glyph unicode="&#xe906;" glyph-name="check" d="M1007.424 781.739c-59.008-90.88-153.28-202.24-221.76-291.328-99.712-129.408-197.248-260.352-296.32-389.632-126.272-164.608-186.752-77.184-292.544 51.136-50.752 61.44-191.36 201.664-196.48 273.408-5.76 79.296 74.112 103.040 142.080 53.12 73.344-53.76 155.968-211.2 224.896-215.040 57.472-3.2 157.696 119.68 199.936 162.048 55.936 56.064 389.952 391.552 425.6 410.432 48.896 25.92 29.248-29.248 14.656-54.144z" />
<glyph unicode="&#xe907;" glyph-name="search" horiz-adv-x="1025" d="M734.669 254.028l0.005-0.005c-6.509 6.396-15.434 10.341-25.28 10.341s-18.771-3.945-25.275-10.336l0.005 0.005c-6.396-6.509-10.341-15.434-10.341-25.28s3.945-18.771 10.336-25.275l278.637-278.573c6.497-6.603 15.536-10.698 25.531-10.698 0.167 0 0.335 0.001 0.476 0.003 9.162 0 19.861 3.075 26.012 9.162l-0.005-0.005c6.396 6.509 10.341 15.434 10.341 25.28s-3.945 18.771-10.336 25.275l-280.106 280.042zM384.216 938.211c212.706 0 384.152-172.984 384.152-384.216-0.182-212.088-172.064-383.97-384.135-384.152h-0.017c-212.706 0-384.216 172.984-384.216 384.152 0 212.706 172.984 384.216 384.216 384.216zM384.216 867.736c-172.352-0.182-312.021-139.852-312.204-312.186v-0.018c0-172.984 139.284-312.204 312.204-312.204 172.856 0 312.204 139.22 312.204 312.204s-139.348 312.204-312.204 312.204z" />
<glyph unicode="&#xe908;" glyph-name="close" horiz-adv-x="1025" d="M15.688-70.402c6.278-6.385 14.266-11.070 23.223-13.311l0.341-0.072c3.989-1.046 8.567-1.647 13.287-1.647 14.603 0 27.863 5.751 37.639 15.112l-0.020-0.019 422.035 422.611 422.611-422.611c9.332-9.413 22.268-15.241 36.565-15.241 0.134 0 0.268 0.001 0.402 0.002h-0.021c0.455-0.015 0.99-0.023 1.527-0.023 14.090 0 26.821 5.82 35.92 15.187l0.012 0.012c9.269 9.423 14.992 22.359 14.992 36.632 0 0.336-0.003 0.67-0.009 1.005l0.001-0.050c0.009 0.363 0.015 0.791 0.015 1.221 0 14.009-5.738 26.677-14.992 35.783l-422.554 422.554 422.611 422.035c9.414 9.313 15.243 22.232 15.243 36.514 0 0.22-0.001 0.439-0.004 0.658v-0.033c0.023 0.557 0.036 1.21 0.036 1.867 0 13.97-5.887 26.565-15.315 35.441l-0.025 0.023c-9.385 9.268-22.287 14.992-36.527 14.992-0.328 0-0.655-0.003-0.981-0.009l0.049 0.001c-0.356 0.009-0.774 0.014-1.194 0.014-14.017 0-26.693-5.737-35.81-14.991l-422.489-422.553-422.099 422.611c-6.494 6.236-14.574 10.869-23.572 13.235l-0.376 0.084c-4.242 1.135-9.112 1.787-14.134 1.787-4.548 0-8.971-0.535-13.21-1.544l0.386 0.078c-9.398-2.172-17.443-7.011-23.533-13.668l-0.031-0.035c-9.35-9.739-15.107-22.988-15.107-37.581 0-4.733 0.606-9.325 1.743-13.701l-0.083 0.377c2.348-9.298 7.051-17.283 13.439-23.556l421.978-422.042-421.971-422.611c-6.378-6.334-11.139-14.288-13.615-23.194l-0.088-0.37c-1.244-4.267-1.959-9.168-1.959-14.236 0-4.633 0.598-9.127 1.721-13.408l-0.082 0.367c2.402-9.424 7.319-17.477 13.992-23.663l0.031-0.028z" />
<glyph unicode="&#xe909;" glyph-name="minus" d="M15.378 426.579c-0.025-6.626 1.67-12.781 5.085-18.465s7.914-10.182 13.495-13.495c5.582-3.313 11.8-5.072 18.656-5.276l919.019 0.048c9.959-0.032 18.705 3.618 26.238 10.95s11.197 16.093 10.993 26.281c-0.172 10.156-3.924 18.9-11.256 26.233s-15.99 10.998-25.975 10.998l-918.976 0.005c-6.655-0.004-12.881-1.655-18.677-4.954s-10.396-7.796-13.799-13.492c-3.403-5.696-5.004-11.974-4.803-18.833z" />
<glyph unicode="&#xe90a;" glyph-name="plus" d="M15.437 426.558c-0.025-6.625 1.67-12.779 5.084-18.462s7.913-10.181 13.493-13.493 11.798-5.071 18.653-5.275l422.231 0.306-0.043-422.494c0.029-9.954 3.658-18.647 10.886-26.081 7.234-7.429 16.012-11.144 26.339-11.144 10.19 0.201 18.951 3.967 26.282 11.298s10.995 15.99 10.992 25.976v422.441l422.188-0.253c9.957-0.032 18.702 3.617 26.236 10.946 7.529 7.334 11.193 16.093 10.989 26.28-0.172 10.155-3.924 18.897-11.255 26.229s-15.988 10.997-25.971 10.997l-422.446 0.005 0.258 422.183c-0.2 6.858-1.957 13.078-5.27 18.658s-7.76 10.129-13.343 13.644c-5.582 3.515-11.788 5.158-18.618 4.928-6.855-0.204-13.079-1.955-18.675-5.254s-10.092-7.795-13.49-13.49c-3.399-5.695-5.085-11.856-5.060-18.481l-0.043-421.892-422.145-0.296c-6.654-0.003-12.879-1.654-18.675-4.953s-10.395-7.795-13.797-13.49c-3.402-5.696-5.003-11.972-4.802-18.83z" />
<glyph unicode="&#xe90b;" glyph-name="asset-allocation" d="M916.552 113.589c-106.749-137.869-276.359-211.89-450.041-196.459-173.682 15.477-327.55 118.27-408.308 272.836s-77.281 339.553 9.215 490.982c86.502 151.388 244.15 248.359 418.267 257.269v-511.189c0-8.692 4.259-16.777 11.344-21.732l419.524-291.696zM558.701 426.894l388.146-269.876c50.246 80.716 76.977 173.905 77.152 268.963 0.217 95.103-26.167 188.377-76.065 269.308zM917.812 738.841c-91.142 118.747-229.707 191.595-379.189 199.375v-460.862z" />
<glyph unicode="&#xe90c;" glyph-name="education-planning" d="M944.017 554.652c0 211.208-172.807 384.015-384.015 384.015s-384.015-172.807-384.015-384.015l-92.824-211.208c-3.18-3.18-3.18-6.36-3.18-12.78 0-19.201 12.78-31.981 31.981-31.981h64.023v-96.004c0-89.583 70.382-160.027 160.027-160.027 9.6 0 22.38 0 31.981 3.18v-131.166h415.996l0.060 329.592c96.004 67.203 159.967 182.407 159.967 310.391zM319.993 586.693c25.621 0 48.002-22.38 48.002-48.002s-22.38-48.002-48.002-48.002c-25.562 0-48.002 22.38-48.002 48.002 0 25.562 22.44 48.002 48.002 48.002zM691.227 532.27s-28.801 92.824-105.604 112.025c-44.822 12.78-153.606-25.621-153.606-25.621-9.6-3.18-22.38-6.42-31.981-6.42-54.423 0-96.004 41.581-96.004 96.004 0 22.38 9.6 44.822 22.38 60.782 3.18 3.18 6.42 6.42 9.6 9.6 57.602 57.602 137.585 92.824 227.229 92.824 175.986 0 316.812-140.826 319.992-313.633v-3.18c0-51.181-41.581-96.004-96.004-96.004-48.002 3.24-86.403 32.041-96.004 73.623z" />
<glyph unicode="&#xe90d;" glyph-name="estate-planning" d="M505.868 937.873c-4.063-1.080-7.817-3.189-10.852-6.12l-487.611-475.419c-4.732-4.577-7.406-10.903-7.406-17.486v-499.802c0-13.474 10.955-24.379 24.43-24.379h365.718c13.423 0 24.379 10.903 24.379 24.379v316.963h195.018v-316.963c0-13.474 10.955-24.379 24.379-24.379h365.718c13.474 0 24.43 10.903 24.43 24.379v499.802c0 6.583-2.674 12.909-7.406 17.486l-487.611 475.419c-6.172 5.966-14.966 8.28-23.195 6.12z" />
<glyph unicode="&#xe90e;" glyph-name="invest-planing" d="M327.34-85.333v268.59c-139.083 0-268.59-129.507-268.59-268.59zM377.709-85.333h268.59v551.869h-12.262c-137.582 0-254.172-110.367-256.336-247.875zM696.652 687.905c0.59 138.688 116.328 250.762 254.959 250.762h13.639v-1024h-268.59z" />
<glyph unicode="&#xe90f;" glyph-name="phone" d="M966.551 213.25c-68.098 22.281-137.225 42.39-206.809 58.843-18.396 4.342-41.819-5.599-61.127-13.711-12.34-5.256-21.366-18.739-30.964-29.25-58.158-64.67-57.93-64.099-133.683-22.509-0.571 0-1.143 0.571-1.485 0.914-100.89 55.529-183.958 138.939-239.829 239.829 0 0.571-0.571 1.143-0.914 1.485-41.591 75.752-42.161 75.41 22.509 133.683 10.512 9.598 23.994 18.738 29.25 30.964 8.227 18.967 18.167 42.732 13.711 61.127-16.339 69.584-36.563 138.597-58.843 206.809-5.827 17.825-21.938 39.19-38.277 45.019-53.815 19.31-107.975 18.396-154.477-22.281-85.695-74.84-117.344-169.102-101.806-280.85 12.34-90.035 53.815-168.532 98.264-245.428 0.571-0.914 0.914-1.485 1.485-2.285 86.037-148.308 209.438-271.709 357.731-357.731 0.914-0.571 1.485-0.914 2.285-1.485 76.896-44.446 155.278-86.037 245.428-98.035 111.745-15.196 205.896 16.11 280.85 101.806 40.675 46.502 41.591 100.662 22.281 154.477-5.827 16.339-27.194 32.45-45.019 38.277z" />
<glyph unicode="&#xe910;" glyph-name="portfolio-management" d="M1024 810.667l-512-512-128 128-256-259.84-128 128 384 387.84 128-128 387.84 384zM1024 42.667v-128h-1024v128z" />
<glyph unicode="&#xe911;" glyph-name="quote" d="M976 786.668c26.44 0.040 47.92-21.361 48-47.761v-419.442c-0.040-17.92-7.601-35-20.881-47.041l-187.761-198.881c-1.28-1.32-2.72-2.44-4.28-3.4-7.64-4.52-17.12-4.64-24.84-0.32-8.961 5.24-13.52 15.64-11.28 25.76l40.44 194.478h-239.401c-26.44-0.040-47.92 21.321-48 47.761v401.081c0.080 26.401 21.561 47.801 48 47.764zM448.004 786.669c26.44 0.040 47.92-21.361 48-47.761v-419.442c-0.040-17.92-7.6-35-20.881-47.041l-187.761-198.881c-1.28-1.32-2.72-2.44-4.28-3.4-7.64-4.52-17.12-4.64-24.84-0.32-8.961 5.24-13.52 15.64-11.28 25.76l40.44 194.478h-239.401c-26.44-0.040-47.92 21.321-48 47.761v401.081c0.080 26.401 21.561 47.801 48 47.765zM447.984 754.671h-399.996c-8.76 0.040-15.92-7-16-15.761v-401.081c0.080-8.76 7.24-15.841 16-15.761h259.083c4.84 0 9.399-2.2 12.44-5.92s4.2-8.64 3.2-13.36l-38.72-186.163 169.325 179.238c6.801 6 10.68 14.56 10.68 23.6l-0.012 419.447c-0.080 8.76-7.24 15.801-16 15.761zM939.998 722.664h-60.001c-8.84 0-16-7.2-16-16 0-8.84 7.16-16.040 16-16.040h48v-48c0-8.84 7.16-16 16-16s16 7.16 16 16v59.759c0.079 11.12-8.88 20.161-20 20.28zM351.992 722.664c-8.84 0-16-7.2-16-16 0-8.84 7.16-16.040 16-16.040h48v-48c0-8.84 7.16-16 16-16s16 7.16 16 16v59.759c0.079 11.12-8.88 20.161-20 20.28z" />
<glyph unicode="&#xe912;" glyph-name="retirement-planning" d="M1019.483 125.385c-11.17 21.481-36.948 29.214-58.429 18.904-30.933-16.326-61.866-30.074-92.799-43.822l-77.332 289.567-15.466 121.158c-182.155 18.904-358.306 2.578-530.157-48.118-18.904 151.228-69.599 300.74-151.228 443.368-14.607 24.918-46.4 32.652-70.458 17.185-23.2-14.607-30.074-44.681-17.185-67.881 79.051-137.481 126.306-280.119 140.912-424.472l5.156 0.859c-1.719-0.859-3.437-0.859-5.156-1.719l17.185-130.606h1.719l-2.578-259.497c-30.933 7.733-62.725 16.326-93.658 25.778-23.2 6.874-47.259-5.156-54.133-28.355s5.156-47.259 28.355-54.133c39.526-12.889 79.91-23.2 119.432-31.792v-4.296h18.904c82.488-17.185 164.977-25.778 246.606-25.778 34.37 0 68.74 1.719 102.251 4.296 158.102 13.748 316.205 61.007 469.148 140.054 21.481 12.030 29.214 37.807 18.904 59.288zM225.527 27.432l1.721 280.977 504.376 65.303 79.051-295.582c-191.615-69.599-386.66-86.784-585.148-50.696z" />
<glyph unicode="&#xe913;" glyph-name="risk-management" d="M26.058 827.409c-15.451-4.617-26.058-18.88-26.058-35.018v-456.052c0-115.612 60.663-222.766 159.769-282.24l223.585-134.221c11.566-6.949 26.058-6.949 37.623 0l223.632 134.221c48.366 29.029 87.544 69.395 115.018 116.572h-129.236c-143.092 0-248.278 158.633-160.553 291.38l137.369 207.996c45.303 68.572 124.613 96.046 197.124 82.333v40.001c0 16.137-10.56 30.401-26.058 35.018l-365.608 109.726c-6.811 2.057-14.125 2.057-20.983 0zM867.347 629.744l137.416-207.996c52.114-78.904-8.411-177.92-99.566-177.92h-274.785c-91.155 0-151.682 99.017-99.566 177.92l137.411 207.996c46.584 70.583 152.501 70.583 199.090 0zM767.824 426.679c-20.206 0-36.572-16.365-36.572-36.572s16.365-36.572 36.572-36.572c20.161 0 36.526 16.365 36.526 36.572s-16.365 36.572-36.526 36.572zM767.824 572.966c-20.206 0-36.572-16.365-36.572-36.572v-36.572c0-20.206 16.365-36.572 36.572-36.572 20.161 0 36.526 16.365 36.526 36.572v36.572c0 20.206-16.365 36.572-36.526 36.572z" />
<glyph unicode="&#xe914;" glyph-name="tax-planning" d="M234.908 938.666c-57.598 0-104.747-47.106-104.747-104.747v-814.506c0-57.598 47.106-104.747 104.747-104.747h554.182c57.598 0 104.747 47.106 104.747 104.747v634.43c0 16.787-5.996 31.262-17.9 43.166l-223.752 223.752c-11.862 11.905-26.38 17.905-43.166 17.905h-374.151zM645.416 510.125c9.849 9.849 25.737 9.849 35.586 0s9.849-25.737 0-35.586l-289.616-289.616c-9.849-9.849-25.737-9.849-35.586 0s-9.849 25.78 0 35.629l289.616 289.616zM622.462 318.79c26.122 0 49.761-10.577 66.848-27.706 17.087-17.087 27.706-40.769 27.706-66.891s-10.577-49.761-27.706-66.891c-17.087-17.087-40.769-27.706-66.848-27.706-26.122 0-49.761 10.577-66.891 27.706-17.087 17.087-27.706 40.769-27.706 66.891s10.577 49.761 27.706 66.891c17.087 17.087 40.769 27.706 66.891 27.706zM401.447 544.040c26.122 0 49.761-10.577 66.891-27.706 17.087-17.087 27.706-40.769 27.706-66.848 0-26.122-10.577-49.761-27.706-66.891-17.087-17.087-40.769-27.706-66.891-27.706s-49.761 10.577-66.848 27.706c-17.087 17.087-27.706 40.769-27.706 66.891s10.577 49.761 27.706 66.848c17.087 17.087 40.769 27.706 66.848 27.706z" />
<glyph unicode="&#xe915;" glyph-name="wealth-preservation" d="M359.799 495.524l-85.828-231.503h476.058l-85.785 231.503zM813.309 548.673l-77.351-42.299 77.351-42.341 42.299-77.351 42.299 77.351 77.351 42.341-77.351 42.299-42.299 77.351zM230.906 768.682l-107.274-58.659 107.274-58.659 58.659-107.274 58.659 107.274 107.274 58.659-107.274 58.659-58.659 107.232zM699.97 819.29l-62.983-34.459 62.983-34.459 34.459-62.983 34.459 62.983 62.983 34.459-62.983 34.459-34.459 62.983zM390.273 202.565l85.785-231.503h-476.058l85.828 231.503zM1024-28.937h-476.058l85.785 231.503h304.482z" />
<glyph unicode="&#xe916;" glyph-name="advisor" d="M606.397 830.129l59.706-84.329-104.585 4.118c-6.647 0.272-10.872 3.471-5.758 8.172l6.286 5.944c7.446 6.851 0.554 14.893-9.108 9.505l-18.188-10.036c-23.418-12.95-44.815-15.475-71.377-15.475-27.167 0-45.163 11.033-53.084 23.543-3.968 6.346-4.959 12.341-4.354 15.449 0.541 3.108 0.876 4.093 5.643 5.206 52.659 11.914 80.238 21.148 128.493 51.644 26.999 17.133 49.426 10.088 66.327-13.74zM653.698 795.126l52.608-0.933c11.001-0.479 17.97-2.15 22.543-4.675 4.56-2.473 7.703-5.84 11.323-12.873l17.867-34.318-62.746 2.434-41.594 50.362zM425.322 712.078l-28.713-28.049c14.079-13.403 24.745-31.637 26.227-48.161 1.482-17.003-3.736-34.55-15.561-48.562-14.685-17.405-36.493-25.213-57.503-23.012 5.591-20.487 1.353-43.356-13.345-60.748-14.749-17.405-36.558-25.291-57.619-23.063 5.643-20.564 1.404-43.447-13.358-60.826-14.44-17.068-35.694-24.916-56.357-23.063 5.977-18.946 3.491-39.484-9.533-54.908-21.538-25.498-61.187-24.838-88.277-1.618l-5.848 4.986-89.218-82.633c-20.404-18.868-21.744-50.583-2.95-71.069l160.348-175.095c18.768-20.487 50.303-21.782 70.783-2.913l165.45 152.989 218.638 71.963c1.082 0.453 172.238 73.4 240.729 106.073 19.116 9.13 24.423 30.833 19.116 48.588-2.718 8.858-7.999 16.097-14.917 20.098-6.918 4.028-15.832 5.439-28.713 1.062l-179.542-59.038c-14.813-4.908-19.593 8.923-4.959 14.362l185.699 69.347c24.758 9.233 24.153 33.385 18.717 48.912-5.308 15.423-19.876 29.112-35.295 26.107l-173.218-33.734c-15.174-2.966-19.399 13.002-4.354 16.537l172.689 39.833c21.461 4.934 24.681 25.822 21.254 41.686-3.375 15.708-21.86 40.197-46.013 37.102-65.283-8.495-194.175-22.002-194.175-22.002-16.424-2.072-17.158 14.193-0.812 16.744l193.171 30.199c17.97 2.836 18.163 27.259 16.913 42.592-4.779 19.723-17.918 36.752-42.264 37.684l-296.274 6.151c-25.093 0.544-34.162 1.878-50.921-14.517zM340.111 701.964l44.738-38.318c18.472-15.786 20.546-42.799 4.908-61.278-15.651-18.493-42.548-20.72-60.917-4.986l-44.763 38.293c-18.382 15.786-21.538 43.654-4.959 61.24 17.184 18.233 43.359 20.15 60.994 5.051zM269.198 618.075l44.738-38.318c18.395-15.708 20.546-42.696 4.921-61.24-15.651-18.467-42.548-20.784-60.929-5.063-14.955 12.794-29.859 25.576-44.763 38.318-18.369 15.786-21.473 43.68-4.882 61.305 17.171 18.194 43.282 20.047 60.917 4.998zM210.768 523.425l32.268-27.57c18.382-15.734 20.52-42.696 4.895-61.24-15.625-18.493-42.47-20.72-60.865-4.934-10.795 9.182-21.538 18.415-32.268 27.57-18.447 15.734-21.538 43.654-4.959 61.253 17.184 18.221 43.269 20.047 60.929 4.921zM152.389 428.826l19.658-16.899c19.116-16.239 22.143-40.87 9.932-55.296-12.212-14.439-36.763-15.333-55.816 1.010l-19.734 16.848c-19.039 16.291-23.264 41.88-9.932 55.309 16.514 16.537 40.538 12.186 55.893-0.971zM893.216 333.178c-4.097-3.794-8.657-7.213-14.17-9.868-70.088-33.437-242.339-106.681-242.339-106.681l-129.549-41.958c-11.143-3.639-8.992-15.501 2.898-19.153l186.511-56.915 140.936-89.911c23.418-14.97 53.008-9.984 66.365 11.176l113.718 180.366c13.333 21.173 5.23 50.181-18.266 65.151-35.334 22.546-70.681 45.182-106.105 67.793z" />
<glyph unicode="&#xe917;" glyph-name="Financial" d="M714.644 920.343v-187.554h188.632zM680.152 662.726c-19.402 0-34.493 15.091-34.493 34.493v241.448h-503.377c-21.558 0-39.882-17.246-39.882-39.882v-944.236c0-21.558 17.246-39.882 39.882-39.882h739.436c21.558 0 39.882 17.246 39.882 39.882v708.177h-241.448zM328.758 771.593v31.259c0 5.389 4.312 8.623 8.623 8.623h32.337c5.389 0 8.623-4.312 8.623-8.623v-31.259c33.415-3.234 60.362-29.103 63.596-62.518 0-2.156 0-4.312-2.156-6.467s-4.312-3.234-6.467-3.234h-33.415c-4.312 0-7.545 3.234-8.623 6.467-2.156 8.623-10.779 16.168-19.402 16.168h-29.103c-16.168 0-30.181-11.857-31.259-26.947-1.078-8.623 2.156-17.246 7.545-23.714s14.013-9.701 22.636-9.701h24.792c22.636 0 44.194-9.701 59.284-25.869 15.091-17.246 22.636-38.804 20.48-61.44-3.234-34.493-31.259-63.596-66.829-71.141v-31.259c0-5.389-4.312-8.623-8.623-8.623h-32.337c-5.389 0-8.623 4.312-8.623 8.623v30.181c-33.415 3.234-60.362 29.103-63.596 62.518 0 2.156 1.078 4.312 2.156 6.467 2.156 2.156 4.312 3.234 6.467 3.234h32.337c4.312 0 7.545-3.234 8.623-6.467 2.156-9.701 9.701-16.168 19.402-16.168h29.103c16.168 0 30.181 11.857 31.259 26.947 1.078 8.623-2.156 17.246-7.545 23.714s-14.013 9.701-22.636 9.701h-21.558c-43.116 0-79.764 31.259-82.998 72.219-3.234 42.038 25.869 80.842 67.907 87.309zM727.579 86.052h-431.158c-19.402 0-34.493 15.091-34.493 34.493s15.091 34.493 34.493 34.493h431.158c19.402 0 34.493-15.091 34.493-34.493s-15.091-34.493-34.493-34.493zM727.579 274.684h-431.158c-19.402 0-34.493 15.091-34.493 34.493s15.091 34.493 34.493 34.493h431.158c19.402 0 34.493-15.091 34.493-34.493s-15.091-34.493-34.493-34.493zM727.579 464.393h-149.827c-19.402 0-34.493 15.091-34.493 34.493s15.091 34.493 34.493 34.493h149.827c19.402 0 34.493-15.091 34.493-34.493s-15.091-34.493-34.493-34.493z" />
<glyph unicode="&#xe918;" glyph-name="started" d="M214.006 350.5c-12.046-9.974-19.011-24.759-19.011-40.347v-54.181c0-29.008 23.655-52.522 52.834-52.522h145.294l-20.51-40.778c-8.782-17.458 3.991-38.004 23.629-38.004h231.518c19.638 0 32.408 20.546 23.628 38.004l-20.51 40.778h145.294c29.18 0 52.834 23.514 52.834 52.522v54.181c0 15.589-6.963 30.373-19.010 40.347l-89.343 74.013c1.764 21.287 2.684 44.895 2.684 71.088 0 122.372-94.621 443.15-211.337 443.15-116.718 0-211.337-310.205-211.337-443.15 0-26.192 0.918-49.801 2.685-71.088l-89.343-74.013zM596.534 696.345c0-53.552-37.845-96.963-84.535-96.963s-84.535 43.411-84.535 96.963c0 53.551 37.845 96.963 84.535 96.963s84.535-43.411 84.535-96.963zM511.999-85.418c29.18 0 52.834 101.382 52.834 140.059 0 38.671-23.654 43.766-52.834 43.766s-52.834-5.095-52.834-43.766c0-38.676 23.654-140.059 52.834-140.059z" />
<glyph unicode="&#xe919;" glyph-name="menu-toggle" horiz-adv-x="1280" d="M42.667 682.667c-23.564 0-42.667-19.103-42.667-42.667s19.103-42.667 42.667-42.667h1194.667c23.564 0 42.667 19.103 42.667 42.667s-19.103 42.667-42.667 42.667h-1194.667zM42.667 256c-23.564 0-42.667-19.103-42.667-42.667s19.103-42.667 42.667-42.667h1194.667c23.564 0 42.667 19.103 42.667 42.667s-19.103 42.667-42.667 42.667h-1194.667z" />
<glyph unicode="&#xe91a;" glyph-name="arrow-right-list" horiz-adv-x="213" d="M204.191 426.669l-195.049-170.666v341.328z" />
</font>
</defs>
</svg>
